Miss India (2020) 720p WEBRip x264 AAC Multi Aud [ Tel,Mal,Tam ] ...

  • Category Movies
  • Type Dubs/Dual Audio
  • Language Telugu
  • Total size 1.3 GB
  • Uploaded By krishh1337
  • Downloads 8330
  • Last checked 15 hours ago
  • Date uploaded 1 week ago
  • Seeders 191
  • Leechers 20

Miss India

Drama

Miss India is being directed by Narendra Nath and Produced by Mahesh S Koneru under East Coast Productions. The film touted to be a drama stars National Award Winning Actress Keerthy Suresh as the Protagonist. It also has an ensemble cast with the likes of Jagapati Babu, Rajendra Prasad, Naresh, Nadhiya, Naveen Chandra and Sumanth Shailendra playing important roles.

Infohash : 3A4E873197A6BF936880F8EC3E158A77F7B1B90E



Miss India (2020)
Movie revolves around Keerthy Suresh who comes from
a middle class family and her dream to become a great businesswoman.

Director: Narendra Nath
Stars: Keerthy Suresh, Nadia Moidu, Jagapathi Babu.

Format : Matroska
Format version : Version 4
File size : 1.28 GiB
Duration : 2 h 16 min
Overall bit rate : 1 343 kb/s

Video
ID : 1
Format : AVC
Format/Info : Advanced Video Codec
Format profile : [email protected]
Format settings : CABAC
Format settings, CABAC : Yes
Codec ID : V_MPEG4/ISO/AVC
Duration : 2 h 16 min
Width : 1 280 pixels
Height : 544 pixels

Audio #1
ID : 2
Format : AAC LC
Format/Info : Advanced Audio Codec Low Complexity
Codec ID : A_AAC-2
Duration : 2 h 16 min
Bit rate : 126 kb/s
Channel(s) : 2 channels
Channel layout : L R
Sampling rate : 44.1 kHz
Frame rate : 43.066 FPS (1024 SPF)
Compression mode : Lossy
Delay relative to video : -21 ms
Stream size : 123 MiB (9%)
Language : Telugu
Default : Yes
Forced : Yes

Audio #2
ID : 3
Format : AAC LC
Format/Info : Advanced Audio Codec Low Complexity
Codec ID : A_AAC-2
Duration : 2 h 16 min
Bit rate : 126 kb/s
Channel(s) : 2 channels
Channel layout : L R
Sampling rate : 44.1 kHz
Frame rate : 43.066 FPS (1024 SPF)
Compression mode : Lossy
Delay relative to video : -21 ms
Stream size : 123 MiB (9%)
Language : Malayalam
Default : No
Forced : No

Audio #3
ID : 4
Format : AAC LC
Format/Info : Advanced Audio Codec Low Complexity
Codec ID : A_AAC-2
Duration : 2 h 16 min
Bit rate : 126 kb/s
Channel(s) : 2 channels
Channel layout : L R
Sampling rate : 44.1 kHz
Frame rate : 43.066 FPS (1024 SPF)
Compression mode : Lossy
Delay relative to video : -21 ms
Stream size : 123 MiB (9%)
Language : Tamil
Default : No
Forced : No

Text #1
ID : 5
Format : UTF-8
Codec ID : S_TEXT/UTF8
Codec ID/Info : UTF-8 Plain Text
Duration : 2 h 12 min
Bit rate : 201 b/s
Count of elements : 1882
Stream size : 195 KiB (0%)
Language : Hindi
Default : Yes
Forced : No

Text #2
ID : 6
Format : UTF-8
Codec ID : S_TEXT/UTF8
Codec ID/Info : UTF-8 Plain Text
Duration : 2 h 12 min
Bit rate : 78 b/s
Count of elements : 1882
Stream size : 76.3 KiB (0%)
Language : English
Default : No
Forced : No

Files:

  • Miss India (2020) 720p WEBRip x264 AAC Multi Aud [ Tel,Mal,Tam ] ESub.mkv (1.3 GB)

There are currently no comments. Feel free to leave one :)

Code:

  • udp://exodus.desync.com:6969/announce
  • udp://explodie.org:6969/announce
  • udp://tracker.tiny-vps.com:6969/announce
  • udp://tracker.torrent.eu.org:451/announce
  • udp://ipv4.tracker.harry.lu:80/announce
  • http://explodie.org:6969/announce
  • http://tracker.opentrackr.org:1337/announce
  • udp://9.rarbg.to:2800/announce
  • http://tracker3.itzmx.com:6961/announce
  • http://tracker1.itzmx.com:8080/announce
  • http://t.nyaatracker.com:80/announce
  • udp://open.stealth.si:80/announce
  • UDP://TRACKER.COPPERSURFER.TK:6969/ANNOUNCE
  • UDP://TRACKER.OPENTRACKR.ORG:1337/ANNOUNCE
  • UDP://TRACKER.LEECHERS-PARADISE.ORG:6969/ANNOUNCE