Welcome Home (2020) Hindi 720p WEBRip x264 AAC

  • Category Movies
  • Type Bollywood
  • Language Hindi
  • Total size 925.4 MB
  • Uploaded By krishh1337
  • Downloads 7248
  • Last checked 34 minutes ago
  • Date uploaded 1 week ago
  • Seeders 45
  • Leechers 12

A Welcome Home Christmas

Romance

Chloe (Jana Kramer) has always supported various military organizations, including the town’s Army toy drive for Christmas. This year, she is paired up with Michael (Brandon Quinn), a vet who recently returned home, and together they recruit other veterans and active military personnel to help in the cause. As the community gears up for the Officer’s Christmas Ball, where all the kids will meet Santa Claus and receive their gifts, Michael and Chloe begin to realize the greatest gift this season has been each other’s company.

Infohash : 498B53FB701351D92997EFFB4111D5FBF1249734



Welcome Home:
The movie follows a pregnant woman living in a house.
She is visited by the a few other ladies presumably some officials and ask her about her lifestyle.

Cast:
Kashmira Irani, Swarda Thigale, Bhushan Shetty,
Boloram Das, Tina Bhatiya, Paresh Rawal.

Director:
Pushkar Mahabal.

Format : Matroska
Format version : Version 4
File size : 925 MiB
Duration : 2 h 6 min
Overall bit rate : 1 025 kb/s

Video
ID : 1
Format : AVC
Format/Info : Advanced Video Codec
Format profile : [email protected]
Format settings : CABAC / 4 Ref Frames
Format settings, CABAC : Yes
Format settings, Reference frames : 4 frames
Codec ID : V_MPEG4/ISO/AVC
Duration : 2 h 6 min
Bit rate : 940 kb/s
Width : 1 280 pixels
Height : 544 pixels
Display aspect ratio : 2.35:1
Frame rate mode : Constant
Frame rate : 25.000 FPS
Color space : YUV
Chroma subsampling : 4:2:0
Bit depth : 8 bits
Scan type : Progressive
Bits/(Pixel*Frame) : 0.054
Stream size : 839 MiB (91%)

Audio
ID : 2
Format : AAC LC
Format/Info : Advanced Audio Codec Low Complexity
Codec ID : A_AAC-2
Duration : 2 h 6 min
Bit rate : 93.5 kb/s
Channel(s) : 2 channels
Channel layout : L R
Sampling rate : 44.1 kHz
Frame rate : 43.066 FPS (1024 SPF)
Compression mode : Lossy
Stream size : 84.4 MiB (9%)
Language : Hindi
Default : Yes
Forced : No

Files:

  • Welcome Home (2020) Hindi 720p WEBRip x264 AAC.mkv (925.4 MB)

Comments

Code:

  • udp://exodus.desync.com:6969/announce
  • udp://explodie.org:6969/announce
  • udp://tracker.tiny-vps.com:6969/announce
  • udp://tracker.torrent.eu.org:451/announce
  • udp://ipv4.tracker.harry.lu:80/announce
  • http://explodie.org:6969/announce
  • http://tracker.opentrackr.org:1337/announce
  • udp://9.rarbg.to:2800/announce
  • http://tracker3.itzmx.com:6961/announce
  • http://tracker1.itzmx.com:8080/announce
  • http://t.nyaatracker.com:80/announce
  • udp://open.stealth.si:80/announce
  • UDP://TRACKER.COPPERSURFER.TK:6969/ANNOUNCE
  • UDP://TRACKER.OPENTRACKR.ORG:1337/ANNOUNCE
  • UDP://TRACKER.LEECHERS-PARADISE.ORG:6969/ANNOUNCE