Rush - Moving Pictures (1981) (PBTHAL LP 24-96) [FLAC] vtwin88cub...

  • Category Music
  • Type Lossless
  • Language English
  • Total size 846.3 MB
  • Uploaded By vtwin88cube2
  • Downloads 266
  • Last checked 30 minutes ago
  • Date uploaded 4 days ago
  • Seeders 32
  • Leechers 3

Infohash : DF0E23EC8BCCFBE230B302867943B46FE222466C

Rush
Moving Pictures (1981)
FLAC LOSSLESS 24bit-96kHz
PBTHAL Vinyl


allmusic.com...

Not only is 1981's Moving Pictures Rush's best album, it is undeniably one of the greatest hard rock albums of all time. The new wave meets hard rock approach of Permanent Waves is honed to perfection -- all seven of the tracks are classics (four are still featured regularly in concert and on classic rock radio). While other hard rock bands at the time experimented unsuccessfully with other musical styles, Rush were one of the few to successfully cross over. The whole entire first side is perfect -- their most renowned song, "Tom Sawyer," kicks things off, and is soon followed by the racing "Red Barchetta," the instrumental "YYZ," and a song that examines the pros and cons of stardom, "Limelight." And while the second side isn't as instantly striking as the first, it is ultimately rewarding. The long and winding "The Camera Eye" begins with a synth-driven piece before transforming into one of the band's more straight-ahead epics, while "Witch Hunt" and "Vital Signs" remain two of the trio's more underrated rock compositions. Rush proved with Moving Pictures that there was still uncharted territory to explore within the hard rock format, and were rewarded with their most enduring and popular album.


foobar2000 1.4.3 / Dynamic Range Meter 1.1.1
log date: 2020-11-05 15:59:27

--------------------------------------------------------------------------------
Analyzed: Rush / Moving Pictures
--------------------------------------------------------------------------------

DR Peak RMS Duration Track
--------------------------------------------------------------------------------
DR14 -0.83 dB -16.39 dB 4:36 01-Tom Sawyer
DR13 -1.43 dB -17.27 dB 6:13 02-Red Barchetta
DR14 -0.59 dB -17.40 dB 4:27 03-YYZ
DR13 -1.28 dB -16.48 dB 4:21 04-Limelight
DR14 -1.46 dB -17.52 dB 11:00 05-The Camera Eye
DR13 -1.00 dB -17.69 dB 4:45 06-Witch Hunt
DR13 -1.75 dB -17.31 dB 4:50 07-Vital Signs

Number of tracks: 7
Official DR value: DR13

Samplerate: 96000 Hz
Channels: 2
Bits per sample: 24
Bitrate: 2887 kbps
Codec: FLAC




Support the artists...
buy it if you like it!

Thanks for Seeding!
Cheers! ;)

Files:

Rush - Moving Pictures (1981) (PBTHAL LP 24-96) [FLAC] vtwin88cube
  • 00.-Rush - Moving Pictures.m3u (0.1 KB)
  • 01.-Tom Sawyer.flac (99.3 MB)
  • 02.-Red Barchetta.flac (131.4 MB)
  • 03.-YYZ.flac (97.0 MB)
  • 04.-Limelight.flac (96.5 MB)
  • 05.-The Camera Eye.flac (226.7 MB)
  • 06.-Witch Hunt.flac (95.3 MB)
  • 07.-Vital Signs.flac (99.9 MB)
  • DR13.txt (1.1 KB)
  • folder.jpg (241.2 KB)
  • lineage.txt (0.5 KB)

There are currently no comments. Feel free to leave one :)

Code:

  • udp://tracker.openbittorrent.com:80/announce
  • udp://exodus.desync.com:6969/announce
  • udp://denis.stalker.upeer.me:6969/announce
  • udp://tracker.torrent.eu.org:451/announce
  • udp://tracker.coppersurfer.tk:6969/announce
  • udp://tracker.internetwarriors.net:1337/announce
  • udp://explodie.org:6969/announce
  • udp://tracker.leechers-paradise.org:6969/announce
  • http://tracker.opentrackr.org:1337/announce