Yes - Fragile (1971) (PBTHAL LP 24-96) [FLAC] vtwin88cube

  • Category Music
  • Type Lossless
  • Language English
  • Total size 873.3 MB
  • Uploaded By vtwin88cube2
  • Downloads 308
  • Last checked 30 minutes ago
  • Date uploaded 4 days ago
  • Seeders 36
  • Leechers 1

Infohash : 20995CACBA8DC6458B676AEEC72E0F7FEA315D7F

Yes
Fragile (1971)
FLAC LOSSLESS 24bit-96kHz
PBTHAL Vinyl


allmusic.com...

Fragile was Yes' breakthrough album, propelling them in a matter of weeks from a cult act to an international phenomenon; not coincidentally, it also marked the point where all of the elements of the music (and more) that would define their success for more than a decade fell into place fully formed. The science-fiction and fantasy elements that had driven the more successful songs on their preceding record, The Yes Album, were pushed much harder here, and not just in the music but in the packaging of the album. If not exactly their peak, Fragile was as perfect a record as the group would ever make, and just as flawless in its timing as its content.


foobar2000 1.4.3 / Dynamic Range Meter 1.1.1
log date: 2020-11-05 14:04:26

--------------------------------------------------------------------------------
Analyzed: Yes / Fragile
--------------------------------------------------------------------------------

DR Peak RMS Duration Track
--------------------------------------------------------------------------------
DR12 -1.00 dB -15.66 dB 8:36 01-Roundabout
DR12 -2.55 dB -17.91 dB 1:41 02-Cans And Brahms
DR10 -2.53 dB -15.00 dB 1:29 03-We Have Heaven
DR12 -1.87 dB -16.66 dB 8:07 04-South Side Of The Sky
DR13 -3.29 dB -18.02 dB 0:36 05-Five Per Cent For Nothing
DR13 -1.31 dB -17.49 dB 3:31 06-Long Distance Runaround
DR13 -1.00 dB -17.40 dB 2:41 07-The Fish (Shindleria Praematurus)
DR13 -6.42 dB -23.94 dB 3:01 08-Mood For A Day
DR12 -2.46 dB -18.01 dB 11:23 09-Heart Of The Sunrise


Number of tracks: 9
Official DR value: DR12

Samplerate: 96000 Hz
Channels: 2
Bits per sample: 24
Bitrate: 2949 kbps
Codec: FLAC




Support the artists...
buy it if you like it!

Thanks for Seeding!
Cheers! ;)

Files:

Yes - Fragile (1971) (PBTHAL LP 24-96) [FLAC] vtwin88cube
  • 00.-Yes - Fragile.m3u (0.3 KB)
  • 01.-Roundabout.flac (187.2 MB)
  • 02.-Cans And Brahms.flac (33.1 MB)
  • 03.-We Have Heaven.flac (32.8 MB)
  • 04.-South Side Of The Sky.flac (174.8 MB)
  • 05.-Five Per Cent For Nothing.flac (13.4 MB)
  • 06.-Long Distance Runaround.flac (75.8 MB)
  • 07.-The Fish (Shindleria Praematurus).flac (56.9 MB)
  • 08.-Mood For A Day.flac (58.5 MB)
  • 09.-Heart Of The Sunrise.flac (240.5 MB)
  • DR12.txt (1.3 KB)
  • folder.jpg (319.7 KB)
  • lineage.txt (0.5 KB)

There are currently no comments. Feel free to leave one :)

Code:

  • udp://tracker.openbittorrent.com:80/announce
  • udp://exodus.desync.com:6969/announce
  • udp://denis.stalker.upeer.me:6969/announce
  • udp://tracker.torrent.eu.org:451/announce
  • udp://tracker.coppersurfer.tk:6969/announce
  • udp://tracker.internetwarriors.net:1337/announce
  • udp://explodie.org:6969/announce
  • udp://tracker.leechers-paradise.org:6969/announce
  • http://tracker.opentrackr.org:1337/announce