The Guess Who - The Best Of (1971) (PBTHAL LP 24-96) [FLAC] vtwin...

  • Category Music
  • Type Lossless
  • Language English
  • Total size 852.6 MB
  • Uploaded By vtwin88cube2
  • Downloads 336
  • Last checked 31 minutes ago
  • Date uploaded 4 days ago
  • Seeders 26
  • Leechers 5

Infohash : 60C3FC943EA44B79D30BCB772373E5DA310124BC

The Guess Who
The Best Of The Guess Who (1971)
FLAC LOSSLESS 24bit-96kHz
PBTHAL Vinyl


allmusic.com...

The Guess Who always seemed a bit like the Canadian predecessor/counterpart to Grand Funk Railroad, but they typically fared far better with the critics because of the versatility that they possessed. That trait is very evident on this collection of hits and great songs. From the opening "These Eyes," with its orchestral strings and Zombies-like baroque pop feel to the classic AOR crunge of "American Woman," the Guess Who played a wide variety of music. It is sometimes hard to believe that the same group that brought the world the jazzy "Undun" and the CS&N-ish hippie anthem "Share the Land" is also responsible for the rocking "No Time." This 11-track collection paints a very entertaining picture of a mutli-talented band and is a perfect introduction for the casual fan.


foobar2000 1.4.3 / Dynamic Range Meter 1.1.1
log date: 2020-11-03 21:19:56

--------------------------------------------------------------------------------
Analyzed: The Guess Who / The Best Of The Guess Who
--------------------------------------------------------------------------------

DR Peak RMS Duration Track
--------------------------------------------------------------------------------
DR11 -2.85 dB -16.70 dB 3:46 01-These Eyes
DR12 -1.00 dB -16.34 dB 2:45 02-Laughing
DR13 -2.57 dB -16.60 dB 3:28 03-Undun
DR10 -3.30 dB -15.91 dB 3:47 04-No Time
DR12 -1.51 dB -15.88 dB 3:53 05-American Woman
DR12 -1.95 dB -16.89 dB 4:51 06-No Sugar Tonight/New Mother Nature
DR12 -2.08 dB -16.30 dB 3:29 07-Hand Me Down World
DR10 -2.09 dB -15.18 dB 2:58 08-Bus Rider
DR11 -2.34 dB -15.69 dB 3:57 09-Share The Land
DR11 -3.14 dB -16.61 dB 3:58 10-Do You Miss Me Darlin'
DR11 -1.00 dB -16.41 dB 4:12 11-Hang On To Your Life

Number of tracks: 11
Official DR value: DR11

Samplerate: 96000 Hz
Channels: 2
Bits per sample: 24
Bitrate: 2923 kbps
Codec: FLAC




Support the artists...
buy it if you like it!

Thanks for Seeding!
Cheers! ;)

Files:

The Guess Who - The Best Of The Guess Who (1971) (PBTHAL LP 24-96) [FLAC] vtwin88cube Spectrograms
  • 01.-These Eyes.flac.png (157.1 KB)
  • 02.-Laughing.flac.png (197.9 KB)
  • 03.-Undun.flac.png (186.4 KB)
  • 04.-No Time.flac.png (167.2 KB)
  • 05.-American Woman.flac.png (164.7 KB)
  • 06.-No Sugar TonightNew Mother Nature.flac.png (188.8 KB)
  • 07.-Hand Me Down World.flac.png (157.1 KB)
  • 08.-Bus Rider.flac.png (154.7 KB)
  • 09.-Share The Land.flac.png (155.4 KB)
  • 10.-Do You Miss Me Darlin'.flac.png (160.8 KB)
  • 11.-Hang On To Your Life.flac.png (172.0 KB)
  • 00.-The Best Of The Guess Who.m3u (0.3 KB)
  • 01.-These Eyes.flac (77.5 MB)
  • 02.-Laughing.flac (57.8 MB)
  • 03.-Undun.flac (72.9 MB)
  • 04.-No Time.flac (78.3 MB)
  • 05.-American Woman.flac (80.0 MB)
  • 06.-No Sugar TonightNew Mother Nature.flac (101.4 MB)
  • 07.-Hand Me Down World.flac (72.0 MB)
  • 08.-Bus Rider.flac (61.4 MB)
  • 09.-Share The Land.flac (81.3 MB)
  • 10.-Do You Miss Me Darlin'.flac (79.9 MB)
  • 11.-Hang On To Your Life.flac (87.9 MB)
  • DR11.txt (1.4 KB)
  • folder.jpg (289.5 KB)
  • lineage.txt (0.5 KB)

There are currently no comments. Feel free to leave one :)

Code:

  • udp://tracker.openbittorrent.com:80/announce
  • udp://exodus.desync.com:6969/announce
  • udp://denis.stalker.upeer.me:6969/announce
  • udp://tracker.torrent.eu.org:451/announce
  • udp://tracker.coppersurfer.tk:6969/announce
  • udp://tracker.internetwarriors.net:1337/announce
  • udp://explodie.org:6969/announce
  • udp://tracker.leechers-paradise.org:6969/announce
  • http://tracker.opentrackr.org:1337/announce