Huey Lewis And The News - Sports (1983) (PBTHAL LP 24-96) [FLAC] ...

  • Category Music
  • Type Lossless
  • Language English
  • Total size 809.6 MB
  • Uploaded By vtwin88cube2
  • Downloads 258
  • Last checked 1 hour ago
  • Date uploaded 2 days ago
  • Seeders 28
  • Leechers 6

Infohash : 359B10FD60142A6449F862DF5CFC6428FC4EF86C

Huey Lewis And The News
Sports (1983)
FLAC LOSSLESS 24bit-96kHz
PBTHAL Vinyl


allmusic.com...

Picture This found Huey Lewis and the News developing a signature sound, but they truly came into their own on their third album, Sports. It's true that the record holds together better than its predecessors because it has a clear, professional production, but the real key is the songs. Where their previous albums were cluttered with generic filler, nearly every song on Sports has a huge hook. And even if the News aren't bothered by breaking new ground, there's no denying that the craftmanship on Sports is pretty infectious. There's a reason why well over half of the album ("The Heart of Rock & Roll," "Heart and Soul," "I Want a New Drug," "Walking on a Thin Line," "If This Is It") were huge American hit singles -- they have instantly memorable hooks, driven home with economical precision by a tight bar band, who are given just enough polish to make them sound like superstars. And that's just what Sports made them.


foobar2000 1.4.3 / Dynamic Range Meter 1.1.1
log date: 2020-11-02 19:06:06

--------------------------------------------------------------------------------
Analyzed: Huey Lewis And The News / Sports
--------------------------------------------------------------------------------

DR Peak RMS Duration Track
--------------------------------------------------------------------------------
DR14 -0.70 dB -16.19 dB 5:05 01-The Heart Of Rock And Roll
DR14 -0.70 dB -16.10 dB 4:12 02-Heart And Soul
DR13 -1.53 dB -16.80 dB 3:48 03-Bad Is Bad
DR15 -0.70 dB -17.69 dB 4:45 04-I Want A New Drug
DR14 -0.70 dB -16.58 dB 5:11 05-Walking On A Thin Line
DR12 -0.70 dB -15.47 dB 3:43 06-Finally Found A Home
DR13 -1.38 dB -17.64 dB 3:54 07-If This Is It
DR13 -0.98 dB -15.93 dB 3:43 08-You Crack Me Up
DR14 -1.95 dB -18.77 dB 3:19 09-Honky Tonk Blues

Number of tracks: 9
Official DR value: DR14

Samplerate: 96000 Hz
Channels: 2
Bits per sample: 24
Bitrate: 2942 kbps
Codec: FLAC




Support the artists...
buy it if you like it!

Thanks for Seeding!
Cheers! ;)

Files:

Huey Lewis And The News - Sports (1983) (PBTHAL LP 24-96) [FLAC] vtwin88cube Spectrograms
  • 01.-The Heart Of Rock And Roll.flac.png (202.7 KB)
  • 02.-Heart And Soul.flac.png (215.0 KB)
  • 03.-Bad Is Bad.flac.png (196.6 KB)
  • 04.-I Want A New Drug.flac.png (206.6 KB)
  • 05.-Walking On A Thin Line.flac.png (187.0 KB)
  • 06.-Finally Found A Home.flac.png (201.5 KB)
  • 07.-If This Is It.flac.png (205.6 KB)
  • 08.-You Crack Me Up.flac.png (206.6 KB)
  • 09.-Honky Tonk Blues.flac.png (195.1 KB)
  • 00.-Huey Lewis And The News - Sports.m3u (0.2 KB)
  • 01.-The Heart Of Rock And Roll.flac (109.0 MB)
  • 02.-Heart And Soul.flac (92.1 MB)
  • 03.-Bad Is Bad.flac (79.3 MB)
  • 04.-I Want A New Drug.flac (102.0 MB)
  • 05.-Walking On A Thin Line.flac (108.8 MB)
  • 06.-Finally Found A Home.flac (82.4 MB)
  • 07.-If This Is It.flac (84.0 MB)
  • 08.-You Crack Me Up.flac (79.9 MB)
  • 09.-Honky Tonk Blues.flac (70.0 MB)
  • DR14.txt (1.3 KB)
  • folder.jpg (359.6 KB)
  • lineage.txt (0.3 KB)

There are currently no comments. Feel free to leave one :)

Code:

  • udp://tracker.openbittorrent.com:80/announce
  • udp://exodus.desync.com:6969/announce
  • udp://denis.stalker.upeer.me:6969/announce
  • udp://tracker.torrent.eu.org:451/announce
  • udp://tracker.coppersurfer.tk:6969/announce
  • udp://tracker.internetwarriors.net:1337/announce
  • udp://explodie.org:6969/announce
  • udp://tracker.leechers-paradise.org:6969/announce
  • http://tracker.opentrackr.org:1337/announce