The.SpongeBob.Movie.Sponge.on.the.Run.2020.2160p.NF.WEB-DL.x265.1...

  • Category Movies
  • Type UHD
  • Language English
  • Total size 9.9 GB
  • Uploaded By prudence25
  • Downloads 586
  • Last checked 1 hour ago
  • Date uploaded 3 days ago
  • Seeders 231
  • Leechers 50

Infohash : E4571741ED9485A99D1D17371C0525DB28D3B512

Code:

Video
ID : 1
Format : HEVC
Format/Info : High Efficiency Video Coding
Format profile : Main [email protected]@Main
HDR format : SMPTE ST 2086, HDR10 compatible
Codec ID : V_MPEGH/ISO/HEVC
Duration : 1 h 31 min
Bit rate : 14.6 Mb/s
Width : 3 840 pixels
Height : 2 160 pixels
Display aspect ratio : 16:9
Frame rate mode : Constant
Frame rate : 23.976 (24000/1001) FPS
Color space : YUV
Chroma subsampling : 4:2:0 (Type 2)
Bit depth : 10 bits
Bits/(Pixel*Frame) : 0.074
Stream size : 9.35 GiB (95%)
Default : Yes
Forced : No
Color range : Limited
Color primaries : BT.2020
Transfer characteristics : PQ
Matrix coefficients : BT.2020 non-constant
Mastering display color primaries : Display P3
Mastering display luminance : min: 0.0001 cd/m2, max: 1000 cd/m2
Maximum Content Light Level : 994 cd/m2
Maximum Frame-Average Light Level : 180 cd/m2

Audio
ID : 2
Format : E-AC-3 JOC
Format/Info : Enhanced AC-3 with Joint Object Coding
Commercial name : Dolby Digital Plus with Dolby Atmos
Codec ID : A_EAC3
Duration : 1 h 35 min
Bit rate mode : Constant
Bit rate : 768 kb/s
Channel(s) : 6 channels
Channel layout : L R C LFE Ls Rs
Sampling rate : 48.0 kHz
Frame rate : 31.250 FPS (1536 SPF)
Compression mode : Lossy
Stream size : 524 MiB (5%)
Language : English
Service kind : Complete Main
Default : Yes
Forced : No
Complexity index : 16
Number of dynamic objects : 15
Bed channel count : 1 channel
Bed channel configuration : LFE

Files:

The.SpongeBob.Movie.Sponge.on.the.Run.2020.2160p.NF.WEB-DL.x265.10bit.HDR.DDP5.1.Atmos-ABBiE
  • RARBG.txt (0.0 KB)
  • The.SpongeBob.Movie.Sponge.on.the.Run.2020.2160p.NF.WEB-DL.HDR.DDP5.1.Atmos.H.265-ABBiE.mkv (9.9 GB)

There are currently no comments. Feel free to leave one :)

Code:

  • http://tracker.trackerfix.com:80/announce
  • udp://9.rarbg.me:2880/announce
  • udp://9.rarbg.to:2810/announce